osu file format v14

[General]
AudioFilename: sister's noise (TV Size).mp3
AudioLeadIn: 1500
PreviewTime: 13828
Countdown: 0
SampleSet: Normal
StackLeniency: 0.7
Mode: 1
LetterboxInBreaks: 0
WidescreenStoryboard: 0

[Editor]
DistanceSpacing: 0.8
BeatDivisor: 4
GridSize: 32
TimelineZoom: 1

[Metadata]
Title:sister's noise (TV Size)
TitleUnicode:sister's noise (TV Size)
Artist:fripSide
ArtistUnicode:fripSide
Creator:taiko_maniac1811
Version:Muzukashii
Source:To Aru Kagaku no Railgun S
Tags:season 2 misaka mikoto shirai kuroko uiharu kazari saten ruiko opening
BeatmapID:252219
BeatmapSetID:93513

[Difficulty]
HPDrainRate:5
CircleSize:5
OverallDifficulty:5
ApproachRate:4
SliderMultiplier:1.4
SliderTickRate:1

[Events]
//Background and Video events
0,0,"bg.jpg",0,0
//Break Periods
//Storyboard Layer 0 (Background)
//Storyboard Layer 1 (Fail)
//Storyboard Layer 2 (Pass)
//Storyboard Layer 3 (Foreground)
//Storyboard Sound Samples
//Background Colour Transformations
3,100,163,162,255

[TimingPoints]
599,416.666666666667,4,1,0,90,1,0
13932,-100,4,1,0,90,0,1
27265,-100,4,1,0,90,0,0
58932,-100,4,1,0,90,0,1
88932,-100,4,1,0,90,0,0

[HitObjects]
256,192,7265,1,0,0:0:0:0:
256,192,7682,1,0,0:0:0:0:
256,192,8099,1,0,0:0:0:0:
256,192,8515,1,0,0:0:0:0:
256,192,8932,1,0,0:0:0:0:
256,192,9349,1,0,0:0:0:0:
256,192,9765,1,0,0:0:0:0:
256,192,10182,1,0,0:0:0:0:
256,192,10599,1,0,0:0:0:0:
256,192,10807,1,8,0:0:0:0:
256,192,11015,1,0,0:0:0:0:
256,192,11224,1,8,0:0:0:0:
256,192,11432,1,0,0:0:0:0:
256,192,11640,1,8,0:0:0:0:
256,192,11849,1,0,0:0:0:0:
256,192,11953,1,0,0:0:0:0:
256,192,12057,1,0,0:0:0:0:
256,192,12161,1,0,0:0:0:0:
256,192,12265,1,0,0:0:0:0:
256,192,12578,1,0,0:0:0:0:
256,192,12890,1,4,0:0:0:0:
256,192,13932,5,4,0:0:0:0:
256,192,14349,1,8,0:0:0:0:
256,192,14661,1,0,0:0:0:0:
256,192,14974,1,8,0:0:0:0:
256,192,15182,1,0,0:0:0:0:
256,192,15390,1,8,0:0:0:0:
256,192,15599,1,0,0:0:0:0:
256,192,15911,1,0,0:0:0:0:
256,192,16224,1,8,0:0:0:0:
256,192,16432,1,0,0:0:0:0:
256,192,16849,1,8,0:0:0:0:
256,192,17265,5,4,0:0:0:0:
256,192,17682,1,8,0:0:0:0:
256,192,17994,1,0,0:0:0:0:
256,192,18307,1,8,0:0:0:0:
256,192,18515,1,0,0:0:0:0:
256,192,18724,1,8,0:0:0:0:
256,192,18932,1,0,0:0:0:0:
256,192,19244,1,8,0:0:0:0:
256,192,19557,1,0,0:0:0:0:
256,192,19765,1,8,0:0:0:0:
256,192,20182,1,8,0:0:0:0:
256,192,20599,5,4,0:0:0:0:
256,192,21015,1,8,0:0:0:0:
256,192,21432,1,0,0:0:0:0:
256,192,21536,1,0,0:0:0:0:
256,192,21849,1,8,0:0:0:0:
256,192,22057,1,0,0:0:0:0:
256,192,22265,1,0,0:0:0:0:
256,192,22682,1,8,0:0:0:0:
256,192,22890,1,8,0:0:0:0:
256,192,23099,1,0,0:0:0:0:
256,192,23307,1,0,0:0:0:0:
256,192,23515,1,8,0:0:0:0:
256,192,23724,1,8,0:0:0:0:
256,192,23932,1,0,0:0:0:0:
256,192,24349,1,8,0:0:0:0:
256,192,24557,1,8,0:0:0:0:
256,192,24765,1,0,0:0:0:0:
256,192,25182,1,8,0:0:0:0:
256,192,25599,1,4,0:0:0:0:
256,192,26015,12,0,26849,0:0:0:0:
256,192,27265,5,0,0:0:0:0:
256,192,27474,1,8,0:0:0:0:
256,192,27682,1,0,0:0:0:0:
256,192,27786,1,0,0:0:0:0:
256,192,28099,1,0,0:0:0:0:
256,192,28307,1,0,0:0:0:0:
256,192,28515,1,8,0:0:0:0:
256,192,28932,1,0,0:0:0:0:
256,192,29140,1,8,0:0:0:0:
256,192,29349,1,0,0:0:0:0:
256,192,29453,1,0,0:0:0:0:
256,192,29765,1,0,0:0:0:0:
256,192,29974,1,0,0:0:0:0:
256,192,30182,1,8,0:0:0:0:
256,192,30390,1,8,0:0:0:0:
256,192,30599,5,4,0:0:0:0:
256,192,30911,1,0,0:0:0:0:
256,192,31224,1,8,0:0:0:0:
256,192,31432,1,0,0:0:0:0:
256,192,31849,1,0,0:0:0:0:
256,192,32057,1,8,0:0:0:0:
256,192,32265,1,0,0:0:0:0:
256,192,32578,1,8,0:0:0:0:
256,192,32890,1,8,0:0:0:0:
256,192,33099,1,0,0:0:0:0:
256,192,33515,1,8,0:0:0:0:
256,192,33932,5,4,0:0:0:0:
256,192,34244,1,0,0:0:0:0:
256,192,34557,1,8,0:0:0:0:
256,192,34765,1,0,0:0:0:0:
256,192,35182,1,0,0:0:0:0:
256,192,35390,1,8,0:0:0:0:
256,192,35599,1,0,0:0:0:0:
256,192,35911,1,8,0:0:0:0:
256,192,36224,1,8,0:0:0:0:
256,192,36432,1,0,0:0:0:0:
256,192,36536,1,0,0:0:0:0:
256,192,36744,1,8,0:0:0:0:
256,192,36849,1,8,0:0:0:0:
256,192,37265,5,4,0:0:0:0:
256,192,37578,1,0,0:0:0:0:
256,192,37890,1,8,0:0:0:0:
256,192,38099,1,0,0:0:0:0:
256,192,38515,1,0,0:0:0:0:
256,192,38724,1,8,0:0:0:0:
256,192,38932,1,0,0:0:0:0:
256,192,39349,1,8,0:0:0:0:
256,192,39661,1,8,0:0:0:0:
256,192,39974,1,0,0:0:0:0:
256,192,40182,1,8,0:0:0:0:
256,192,40390,1,8,0:0:0:0:
256,192,40599,5,4,0:0:0:0:
256,192,40911,1,4,0:0:0:0:
256,192,41224,1,12,0:0:0:0:
256,192,41432,1,12,0:0:0:0:
256,192,41849,1,0,0:0:0:0:
256,192,42265,1,4,0:0:0:0:
256,192,42578,1,4,0:0:0:0:
256,192,42890,1,12,0:0:0:0:
256,192,43099,1,12,0:0:0:0:
256,192,43515,1,8,0:0:0:0:
256,192,43932,5,4,0:0:0:0:
256,192,44244,1,0,0:0:0:0:
256,192,44557,1,8,0:0:0:0:
256,192,44765,1,0,0:0:0:0:
256,192,45078,1,0,0:0:0:0:
256,192,45390,1,8,0:0:0:0:
256,192,45599,1,0,0:0:0:0:
256,192,45911,1,8,0:0:0:0:
256,192,46224,1,8,0:0:0:0:
256,192,46432,1,0,0:0:0:0:
256,192,46849,1,8,0:0:0:0:
256,192,47265,5,4,0:0:0:0:
256,192,47578,1,0,0:0:0:0:
256,192,47890,1,8,0:0:0:0:
256,192,48099,1,0,0:0:0:0:
256,192,48411,1,0,0:0:0:0:
256,192,48724,1,8,0:0:0:0:
256,192,48932,1,0,0:0:0:0:
256,192,49244,1,8,0:0:0:0:
256,192,49557,1,8,0:0:0:0:
256,192,49765,1,0,0:0:0:0:
256,192,49869,1,0,0:0:0:0:
256,192,50078,1,8,0:0:0:0:
256,192,50182,1,8,0:0:0:0:
256,192,50599,5,4,0:0:0:0:
256,192,50911,1,0,0:0:0:0:
256,192,51224,1,8,0:0:0:0:
256,192,51432,1,0,0:0:0:0:
256,192,51744,1,8,0:0:0:0:
256,192,52057,1,8,0:0:0:0:
256,192,52265,1,0,0:0:0:0:
256,192,52578,1,0,0:0:0:0:
256,192,52890,1,8,0:0:0:0:
256,192,53099,1,0,0:0:0:0:
256,192,53515,1,8,0:0:0:0:
256,192,53932,5,4,0:0:0:0:
256,192,54140,1,8,0:0:0:0:
256,192,54349,1,0,0:0:0:0:
256,192,54557,1,8,0:0:0:0:
256,192,54765,1,0,0:0:0:0:
256,192,55182,1,0,0:0:0:0:
256,192,55599,1,4,0:0:0:0:
256,192,55911,1,12,0:0:0:0:
256,192,56224,1,12,0:0:0:0:
256,192,56432,1,0,0:0:0:0:
256,192,56536,1,0,0:0:0:0:
256,192,56640,1,0,0:0:0:0:
256,192,56849,1,0,0:0:0:0:
256,192,56953,1,0,0:0:0:0:
256,192,57057,1,0,0:0:0:0:
256,192,57265,1,4,0:0:0:0:
256,192,57578,1,4,0:0:0:0:
256,192,57890,12,0,58515,0:0:0:0:
256,192,58932,5,4,0:0:0:0:
256,192,59349,1,8,0:0:0:0:
256,192,59661,1,0,0:0:0:0:
256,192,59974,1,0,0:0:0:0:
256,192,60182,1,8,0:0:0:0:
256,192,60390,1,0,0:0:0:0:
256,192,60599,1,8,0:0:0:0:
256,192,60911,1,8,0:0:0:0:
256,192,61224,1,0,0:0:0:0:
256,192,61432,1,8,0:0:0:0:
256,192,61849,1,8,0:0:0:0:
256,192,62265,5,4,0:0:0:0:
256,192,62682,1,8,0:0:0:0:
256,192,62994,1,0,0:0:0:0:
256,192,63307,1,0,0:0:0:0:
256,192,63515,1,8,0:0:0:0:
256,192,63724,1,0,0:0:0:0:
256,192,63932,1,8,0:0:0:0:
256,192,64244,1,0,0:0:0:0:
256,192,64557,1,0,0:0:0:0:
256,192,64765,1,8,0:0:0:0:
256,192,65182,1,8,0:0:0:0:
256,192,65599,5,4,0:0:0:0:
256,192,66015,1,8,0:0:0:0:
256,192,66328,1,8,0:0:0:0:
256,192,66640,1,8,0:0:0:0:
256,192,66849,1,8,0:0:0:0:
256,192,67265,1,0,0:0:0:0:
256,192,67682,1,8,0:0:0:0:
256,192,67994,1,8,0:0:0:0:
256,192,68307,1,8,0:0:0:0:
256,192,68515,1,8,0:0:0:0:
256,192,68724,1,8,0:0:0:0:
256,192,68932,1,0,0:0:0:0:
256,192,69349,1,8,0:0:0:0:
256,192,69557,1,8,0:0:0:0:
256,192,69661,1,8,0:0:0:0:
256,192,69765,1,8,0:0:0:0:
256,192,69974,1,8,0:0:0:0:
256,192,70182,1,8,0:0:0:0:
256,192,70390,1,8,0:0:0:0:
256,192,70599,1,4,0:0:0:0:
256,192,70911,1,4,0:0:0:0:
256,192,71224,1,12,0:0:0:0:
256,192,71432,2,4,L|416:192,1,140,,,0:0:0:0:
256,192,72265,5,4,0:0:0:0:
256,192,72682,1,8,0:0:0:0:
256,192,72994,1,0,0:0:0:0:
256,192,73307,1,8,0:0:0:0:
256,192,73515,1,0,0:0:0:0:
256,192,73724,1,8,0:0:0:0:
256,192,73932,1,0,0:0:0:0:
256,192,74244,1,0,0:0:0:0:
256,192,74557,1,8,0:0:0:0:
256,192,74765,1,0,0:0:0:0:
256,192,75182,1,8,0:0:0:0:
256,192,75599,5,4,0:0:0:0:
256,192,76015,1,8,0:0:0:0:
256,192,76328,1,0,0:0:0:0:
256,192,76640,1,8,0:0:0:0:
256,192,76849,1,0,0:0:0:0:
256,192,77057,1,8,0:0:0:0:
256,192,77265,1,0,0:0:0:0:
256,192,77578,1,8,0:0:0:0:
256,192,77890,1,0,0:0:0:0:
256,192,78099,1,8,0:0:0:0:
256,192,78515,1,8,0:0:0:0:
256,192,78932,5,4,0:0:0:0:
256,192,79349,1,8,0:0:0:0:
256,192,79765,1,0,0:0:0:0:
256,192,79869,1,0,0:0:0:0:
256,192,80182,1,8,0:0:0:0:
256,192,80390,1,0,0:0:0:0:
256,192,80599,1,0,0:0:0:0:
256,192,81015,1,8,0:0:0:0:
256,192,81224,1,8,0:0:0:0:
256,192,81432,1,0,0:0:0:0:
256,192,81640,1,0,0:0:0:0:
256,192,81849,1,8,0:0:0:0:
256,192,82057,1,8,0:0:0:0:
256,192,82265,1,0,0:0:0:0:
256,192,82682,1,8,0:0:0:0:
256,192,82890,1,8,0:0:0:0:
256,192,83099,1,0,0:0:0:0:
256,192,83515,1,8,0:0:0:0:
256,192,83932,1,4,0:0:0:0:
256,192,84349,12,0,84765,0:0:0:0:
256,192,85182,5,0,0:0:0:0:
256,192,85390,1,8,0:0:0:0:
256,192,85599,1,0,0:0:0:0:
256,192,86015,1,8,0:0:0:0:
256,192,86224,1,8,0:0:0:0:
256,192,86432,1,0,0:0:0:0:
256,192,86744,1,0,0:0:0:0:
256,192,87057,1,8,0:0:0:0:
256,192,87265,1,4,0:0:0:0:
256,192,87682,12,0,88932,0:0:0:0:
